#TITLE:We'll Rock You;
#SUBTITLE:;
#ARTIST:皇后乐队;
#TITLETRANSLIT:;
#SUBTITLETRANSLIT:;
#ARTISTTRANSLIT:;
#CREDIT:;
#BANNER:rock-logo.jpg;
#BACKGROUND:rock.jpg;
#LYRICSPATH:;
#CDTITLE:&.png;
#MUSIC:WE WILL ROCK YOU.mp3;
#OFFSET:0.000;
#SAMPLESTART:100.000;
#SAMPLELENGTH:12.000;
#SELECTABLE:YES;
#BPMS:0.000=161.980,52.000=323.960,55.000=64.792,56.000=161.980,116.000=323.960,119.000=64.792,120.000=161.980,188.000=64.792,189.000=323.960,192.000=161.980,298.000=323.960,301.000=64.792,302.000=161.980,350.000=323.960,351.500=64.792,352.000=161.980,358.000=323.960,358.750=64.792,359.000=161.980;
#STOPS:;
#BGCHANGES:;
// cache tags:
#FIRSTBEAT:12.000;
#LASTBEAT:401.000;
#SONGFILENAME:Songs/SDO/We'll Rock You/WE WILL ROCK YOU.sm;
#HASMUSIC:1;
#HASBANNER:1;
#MUSICLENGTH:154.075;
// end cache tags

//---------------dance-single - 标准----------------
#NOTES:
     dance-single:
     标准:
     Hard:
     6:
     0.401,0.488,0.623,0.071,0.000,311.000,96.000,11.000,0.000,18.000:


0000
0000
0000
0000
,
0000
0000
0000
0000
,
0000
0000
0000
0000
,
1010
0100
0001
0000
,
0101
0010
1000
0000
,
0001
0100
0001
0000
,
1001
0010
1000
0000
,
0002
0000
0010
0003
,
0101
0100
1000
0000
,
2001
0000
0010
3000
,
0101
0010
1000
0000
,
0120
0000
1000
0030
,
0101
0100
0010
0000
,
0021
0000
0000
0000
0100
0000
0000
0030
,
0101
0100
1000
0001
,
0010
1000
0010
0100
,
0101
0100
0010
1000
,
0010
0010
0100
0001
,
1100
0010
1000
0001
,
0010
0100
0001
0101
,
1000
1001
1100
0001
,
0010
0100
0001
1000
,
0101
0010
0001
0010
,
0100
0010
1000
0100
,
0101
0110
0000
0000
,
0011
0110
1100
0000
,
0110
0001
0100
0010
,
0001
0010
0100
1000
,
1101
1011
2002
0000
,
0010
0000
0000
0000
0100
0000
0000
3003
,
0110
0000
0100
0000
,
0001
1100
0001
0000
,
1001
0100
0010
1000
,
1000
0010
0100
0001
,
1010
0100
0010
1000
,
0010
0100
0001
0100
,
1001
0010
0001
1000
,
0001
0110
0001
1000
,
1010
0100
0010
0100
,
0010
0100
0001
0100
,
1011
1010
0000
0000
,
0001
0110
1000
0000
,
0101
0010
0100
0010
,
0100
0010
0001
0100
,
1110
0011
0000
0000
,
1000
0110
0001
0000
,
0101
0010
1001
0100
,
2012
0000
0000
0000
0100
0000
0000
3003
,
1011
0000
0010
0000
,
1000
0001
1000
0000
,
0101
0100
0010
1000
,
1000
0010
0100
0001
,
0011
0100
0010
1000
,
0010
0100
0001
0100
,
0101
0010
0001
1000
,
0001
0100
0001
1000
,
1100
1000
0110
0100
,
0011
0001
0110
0100
,
1011
1001
0000
0000
,
0101
0010
1000
0000
,
0101
0010
0001
0010
,
0100
0010
1000
0100
,
1110
1001
0000
0000
,
1000
0110
0001
0000
,
0101
0010
0001
0010
,
0100
0010
0100
1000
,
1101
1001
0000
0000
,
0001
0110
1000
0000
,
0110
0001
0100
0010
,
0001
0100
1000
0010
,
1011
1001
0000
0000
,
1011
0101
0000
0000
,
1101
0011
0000
0000
,
1010
1001
0000
0000
,
0012
0000
1000
0000
,
0100
0000
0000
0000
1000
0000
0000
0003
,
0110
1000
0100
0000
,
0010
0100
0001
0000
,
0110
1000
0010
0000
,
0100
0011
1000
0000
,
0110
1000
0001
0000
,
0010
0110
1000
0000
,
0110
0001
0100
0000
,
0110
1000
0001
0000
,
0110
0001
0100
0000
,
0010
0001
0100
0000
,
0011
0100
0110
0000
,
2100
0000
0000
0000
0100
0000
0000
3000
,
0011
0000
1002
0000
,
0100
0000
0000
0000
0010
0000
0000
0003
,
1100
0100
0100
0010
,
0100
0010
0001
0010
,
1101
1100
0000
0000
,
0001
0010
1000
0000
,
0011
0010
0001
1100
,
0010
0001
0010
0100
,
1011
1001
0000
0000
,
1000
0011
0100
0000
,
0011
0010
1100
0010
,
0001
0010
0100
0010
,
1101
1001
0000
0000
;
